百度云资源论坛

 找回密码
 立即注册
搜索
热搜: 百度云资源
开启左侧

投奔怒海 Boat.People.1982.CHINESE.1080p.BluRay.x264.DTS-FGT 9.52GB

[复制链接]
百度网盘资源 发表于 2019-7-4 06:50:32 | 显示全部楼层 |阅读模式


帖子完整标题:投奔怒海 Boat.People.1982.CHINESE.1080p.BluRay.x264.DTS-FGT 9.52GB




◎译  名 Boat People
◎片  名 投奔怒海
◎年  代 1982
◎产  地 香港
◎类  别 剧情
◎语  言 粤语 / 日语 / 法语 / 越南语
◎上映日期 1982-10-13
◎片  长 109 分钟
◎导  演 许鞍华 Ann Hui
◎编  剧 邱刚健  Tai An-Ping Chiu
◎主  演 林子祥 George Lam
      缪骞人 Cora Miao
      马斯晨 Season Ma
      刘德华 Andy Lau
      奇梦石 Mengshi Qi
      郝嘉陵 Jialing Hao


◎标  签 香港 | 新浪潮 | 政治 | 越南 | 1982 | 剧情 | 文艺 | 1980s

◎简  介  

  日本摄影记者芥川(林子祥)三年后重返刚刚解放的越南采访,遍地的生机令他心生欢喜,但当他无意间走进城市的另一隅结识当地女孩琴娘(马斯晨)后,方知之前所见不过是越共政府特意为他这样的外国记者安排的粉饰太平的假像。
在琴娘并非刻意的“导游”下,越南平民百姓正处于水深火热中的悲惨生活逐渐被芥川尽收眼底。琴娘一家人、战后唯一留下来的某酒吧的老板娘(缪骞人)及她的正想方设法逃离越南的情人祖明(刘德华)等人的被越共任意践踏的自尊强烈地触动着芥川敏感善良的心,尽管他并无彻底改变他们命运的能力,却仍是尽力给予帮助。

◎获奖情况  

  第2届香港电影金像奖(1983)
  最佳电影
  最佳导演 许鞍华
  最佳编剧 邱刚健
  最佳男主角(提名) 林子祥
  最佳女主角(提名) 缪骞人 / 马斯晨
  最佳新演员 马斯晨
  最佳新演员(提名) 刘德华
  最佳摄影(提名) 黄宗基
  最佳剪接(提名) 健健
  最佳美术指导 区丁平
  最佳原创电影音乐(提名) 罗永辉


Video
ID                                       : 1
Format                                   : AVC
Format/Info                              : Advanced Video Codec
Format settings                          : CABAC / 4 Ref Frames
Format settings, CABAC                   : Yes
Format settings, ReFrames                : 4 frames
Codec ID                                 : V_MPEG4/ISO/AVC
Duration                                 : 1 h 44 min
Bit rate                                 : 11.5 Mb/s
Width                                    : 1 920 pixels
Height                                   : 1 036 pixels
Display aspect ratio                     : 1.85:1
Frame rate mode                          : Constant
Frame rate                               : 25.000 FPS
Color space                              : YUV
Chroma subsampling                       : 4:2:0
Bit depth                                : 8 bits
Scan type                                : Progressive
Bits/(Pixel*Frame)                       : 0.231
Stream size                              : 8.42 GiB (88%)
Title                                    : Boat.People.1982.CHINESE.1080p.BluRay.x264.DTS-FGT
Writing library                          : x264 core 148 r2795M aaa9aa8
Encoding settings                        : cabac=1 / ref=4 / deblock=1:-2:-2 / analyse=0x3:0x113 / me=umh / subme=9 / psy=1 / psy_rd=1.00:0.15 / mixed_ref=1 / me_range=16 / chroma_me=1 / trellis=2 / 8x8dct=1 / cqm=0 / deadzone=21,11 / fast_pskip=1 / chroma_qp_offset=-3 / threads=24 / lookahead_threads=3 / sliced_threads=0 / nr=0 / decimate=1 / interlaced=0 / bluray_compat=0 / constrained_intra=0 / bframes=3 / b_pyramid=2 / b_adapt=1 / b_bias=0 / direct=3 / weightb=1 / open_gop=0 / weightp=2 / keyint=250 / keyint_min=25 / scenecut=40 / intra_refresh=0 / rc_lookahead=50 / rc=2pass / mbtree=1 / bitrate=11500 / ratetol=1.0 / qcomp=0.60 / qpmin=0 / qpmax=69 / qpstep=4 / cplxblur=20.0 / qblur=0.5 / vbv_maxrate=31250 / vbv_bufsize=31250 / nal_hrd=none / filler=0 / ip_ratio=1.40 / aq=1:1.00
Language                                 : Chinese
Default                                  : Yes
Forced                                   : No

Audio
ID                                       : 2
Format                                   : DTS
Format/Info                              : Digital Theater Systems
Codec ID                                 : A_DTS
Duration                                 : 1 h 44 min
Bit rate mode                            : Constant
Bit rate                                 : 1 509 kb/s
Channel(s)                               : 2 channels
Channel layout                           : L R
Sampling rate                            : 48.0 kHz
Frame rate                               : 93.750 FPS (512 SPF)
Bit depth                                : 24 bits
Compression mode                         : Lossy
Stream size                              : 1.10 GiB (12%)
Title                                    : Boat.People.1982.CHINESE.1080p.BluRay.x264.DTS-FGT
Language                                 : Chinese
Default                                  : Yes
Forced                                   : No

Text
ID                                       : 3
Format                                   : UTF-8
Codec ID                                 : S_TEXT/UTF8
Codec ID/Info                            : UTF-8 Plain Text
Duration                                 : 1 h 39 min
Bit rate                                 : 37 b/s
Count of elements                        : 1059
Stream size                              : 27.5 KiB (0%)
Language                                 : English
Default                                  : Yes
Forced                                   : No

Menu
00:00:00.000                             : en:Chapter 01
00:16:13.280                             : en:Chapter 02
00:38:31.080                             : en:Chapter 03
00:57:45.040                             : en:Chapter 04
01:12:36.480                             : en:Chapter 05
01:25:46.640                             : en:Chapter 06
01:43:09.520                             : en:Chapter 07



                                                                                                                                                                                                        
                                                                                                                                                                                                                                                                                                                                                                                                                                                                                                                                                                                                                                                                                                                                                                                                                                                        
5c3cce0d22a93a565d75bc9e6ac02fa2.torrent (48.16 KB)

回复

使用道具 举报

百度云资源论坛 ( 闽ICP备16005822号-1 )|网站地图

本网站所有资源来自网络,如无意中侵犯了您的权益,请发邮件至 [email protected],立即清除相关链接

GMT+8, 2019-9-19 02:59 , Processed in 0.066567 second(s), 25 queries .

Powered by Discuz! X3.2

© 2001-2013 Comsenz Inc.

快速回复 返回顶部 返回列表