百度云资源论坛

 找回密码
 立即注册
搜索
热搜: 百度云资源
开启左侧

受试者/试验对象 The.Subjects.2015.1080p.BluRay.x264.DTS-FGT 7.10GB

[复制链接]
百度网盘资源 发表于 2019-7-4 06:50:32 | 显示全部楼层 |阅读模式


帖子完整标题:受试者/试验对象 The.Subjects.2015.1080p.BluRay.x264.DTS-FGT 7.10GB




◎译  名 受试者 / 试验对象
◎片  名 The Subjects
◎年  代 2015
◎产  地 澳大利亚 Australia
◎类  别 惊悚
◎语  言 英语
◎上映日期 2015-10-08
◎IMDb评分  5.2/10 from 1143 users
◎片  长 80分钟
◎导  演 Robert Mond

◎标  签 科幻 | 澳大利亚 | 惊悚 | 电影 | 澳大利亚电影 | 2015 | 恐怖 | 英语电影弃剧

◎简  介  

  八个陌生人,走进一个封闭的房间,接受一种新药的临床实验,这种新药能给他们带来巨大的能量......
Video
ID                                       : 1
Format                                   : AVC
Format/Info                              : Advanced Video Codec
Format settings                          : CABAC / 4 Ref Frames
Format settings, CABAC                   : Yes
Format settings, ReFrames                : 4 frames
Codec ID                                 : V_MPEG4/ISO/AVC
Duration                                 : 1 h 18 min
Bit rate                                 : 11.5 Mb/s
Width                                    : 1 920 pixels
Height                                   : 816 pixels
Display aspect ratio                     : 2.35:1
Frame rate mode                          : Constant
Frame rate                               : 24.000 FPS
Color space                              : YUV
Chroma subsampling                       : 4:2:0
Bit depth                                : 8 bits
Scan type                                : Progressive
Bits/(Pixel*Frame)                       : 0.306
Stream size                              : 6.27 GiB (88%)
Title                                    : The.Subjects.2015.1080p.BluRay.x264.DTS-FGT
Writing library                          : x264 core 148 r2795M aaa9aa8
Encoding settings                        : cabac=1 / ref=4 / deblock=1:-2:-2 / analyse=0x3:0x113 / me=umh / subme=9 / psy=1 / psy_rd=1.00:0.15 / mixed_ref=1 / me_range=16 / chroma_me=1 / trellis=2 / 8x8dct=1 / cqm=0 / deadzone=21,11 / fast_pskip=1 / chroma_qp_offset=-3 / threads=24 / lookahead_threads=3 / sliced_threads=0 / nr=0 / decimate=1 / interlaced=0 / bluray_compat=0 / constrained_intra=0 / bframes=3 / b_pyramid=2 / b_adapt=1 / b_bias=0 / direct=3 / weightb=1 / open_gop=0 / weightp=2 / keyint=250 / keyint_min=25 / scenecut=40 / intra_refresh=0 / rc_lookahead=50 / rc=2pass / mbtree=1 / bitrate=11500 / ratetol=1.0 / qcomp=0.60 / qpmin=0 / qpmax=69 / qpstep=4 / cplxblur=20.0 / qblur=0.5 / vbv_maxrate=31250 / vbv_bufsize=31250 / nal_hrd=none / filler=0 / ip_ratio=1.40 / aq=1:1.00
Language                                 : English
Default                                  : Yes
Forced                                   : No

Audio
ID                                       : 2
Format                                   : DTS
Format/Info                              : Digital Theater Systems
Codec ID                                 : A_DTS
Duration                                 : 1 h 18 min
Bit rate mode                            : Constant
Bit rate                                 : 1 509 kb/s
Channel(s)                               : 6 channels
Channel layout                           : C L R Ls Rs LFE
Sampling rate                            : 48.0 kHz
Frame rate                               : 93.750 FPS (512 SPF)
Bit depth                                : 16 bits
Compression mode                         : Lossy
Stream size                              : 844 MiB (12%)
Title                                    : The.Subjects.2015.1080p.BluRay.x264.DTS-FGT
Language                                 : English
Default                                  : Yes
Forced                                   : No

Menu
00:00:00.000                             : en:Chapter 01
00:08:17.750                             : en:Chapter 02
00:15:29.208                             : en:Chapter 03
00:23:24.250                             : en:Chapter 04
00:32:50.458                             : en:Chapter 05
00:39:26.333                             : en:Chapter 06
00:46:57.542                             : en:Chapter 07
00:54:28.250                             : en:Chapter 08
01:02:19.875                             : en:Chapter 09
01:12:39.625                             : en:Chapter 10



                                                                                                                                                                                                        
                                                                                                                                                                                                                                                                                                                                                                                                                                                                                                                                                                                                                                                                                                                                                                                                                                                        
338fcd438c9c3f60c3592655df6c2cc6.torrent (36.01 KB)

回复

使用道具 举报

百度云资源论坛 ( 闽ICP备16005822号-1 )|网站地图

本网站所有资源来自网络,如无意中侵犯了您的权益,请发邮件至 [email protected],立即清除相关链接

GMT+8, 2019-9-22 08:52 , Processed in 0.070796 second(s), 25 queries .

Powered by Discuz! X3.2

© 2001-2013 Comsenz Inc.

快速回复 返回顶部 返回列表