百度云资源论坛

 找回密码
 立即注册
搜索
热搜: 百度云资源
开启左侧

大学之旅 College.Road.Trip.2008.1080p.Bluray.x264-1920 7.95GB

[复制链接]
百度网盘资源 发表于 2019-7-4 06:50:32 | 显示全部楼层 |阅读模式


帖子完整标题:大学之旅 College.Road.Trip.2008.1080p.Bluray.x264-1920 7.95GB




◎译  名 大学之旅 / National Lampoon's College Road Trip
◎片  名 College Road Trip
◎年  代 2008
◎产  地 美国
◎类  别 剧情 / 喜剧 / 家庭 / 冒险
◎语  言 英语
◎上映日期 2008-03-07
◎IMDb评分  4.3/10 from 14625 users
◎片  长 83 分钟
◎导  演 Roger Kumble
◎编  剧 Emi Mochizuki / Carrie Evans / Cinco Paul / Ken Daurio
◎主  演 Martin Lawrence
      Raven-Symone
      Brenda Song


◎标  签 喜剧 | 美国 | 青春 | 美国电影 | 大学之旅 | 搞笑 | 2008 | 校园

◎简  介  

  对于女孩瑞秋(雷文·西蒙尼 Raven Symone 饰)来说,开始大学生活等同于打开了新世界的大门,在这扇门背后的,是自由不羁的生活和真正独立自主的标志。在进入大学之前,瑞秋决定来一个“大学之旅”,在还没有决定进入哪所大学之前,她想要通过双眼,亲自见证一下不同大学中的迥异生活。
不幸的是,身为父亲的詹姆斯(马丁·劳伦斯 Martin Lawrence 饰)显然觉得自己的女儿还是一个需要他来关心和照顾的小女孩,爱女心切的他斩钉截铁的决定要陪伴女儿完成这一趟特殊的旅程。本应该轻松快乐的旅途由于詹姆斯的存在而变成了一场噩梦,瑞秋和詹姆斯之间的父女之情也受到了前所未有的考验。
Video
ID                                       : 1
Format                                   : AVC
Format settings, CABAC                   : Yes
Format settings, ReFrames                : 5 frames
Codec ID                                 : V_MPEG4/ISO/AVC
Duration                                 : 1h 23mn
Bit rate                                 : 13.0 Mbps
Width                                    : 1 920 pixels
Height                                   : 800 pixels
Display aspect ratio                     : 2.40:1
Frame rate mode                          : Constant
Frame rate                               : 23.976 fps
Color space                              : YUV
Chroma subsampling                       : 4:2:0
Bit depth                                : 8 bits
Scan type                                : Progressive
Bits/(Pixel*Frame)                       : 0.354
Stream size                              : 7.42 GiB (93%)
Writing library                          : x264 core 60 r890 a55f1c3
Encoding settings                        : cabac=1 / ref=5 / deblock=1:0:0 / analyse=0x3:0x133 / me=umh / subme=6 / brdo=1 / mixed_ref=1 / me_range=16 / chroma_me=1 / trellis=1 / 8x8dct=1 / cqm=0 / deadzone=21,11 / chroma_qp_offset=0 / threads=6 / nr=0 / decimate=1 / mbaff=0 / bframes=3 / b_pyramid=1 / b_adapt=1 / b_bias=0 / direct=1 / wpredb=1 / bime=1 / keyint=250 / keyint_min=25 / scenecut=40(pre) / rc=2pass / bitrate=13030 / ratetol=1.0 / rceq=\'blurCplx^(1-qComp)\' / qcomp=1.00 / qpmin=10 / qpmax=51 / qpstep=4 / cplxblur=20.0 / qblur=0.5 / ip_ratio=1.40 / pb_ratio=1.30 / aq=2:1.00
Language                                 : English
Default                                  : Yes
Forced                                   : No

Audio
ID                                       : 2
Format                                   : AC-3
Format/Info                              : Audio Coding 3
Mode extension                           : CM (complete main)
Format settings, Endianness              : Big
Codec ID                                 : A_AC3
Duration                                 : 1h 23mn
Bit rate mode                            : Constant
Bit rate                                 : 640 Kbps
Channel(s)                               : 6 channels
Channel positions                        : Front: L C R, Side: L R, LFE
Sampling rate                            : 48.0 KHz
Frame rate                               : 31.250 fps (1536 spf)
Compression mode                         : Lossy
Stream size                              : 381 MiB (5%)
Default                                  : Yes
Forced                                   : No



                                                                                                                                                                                                        
                                                                                                                                                                                                                                                                                                                                                                                                                                                                                                                                                                                                                                                                                                                                                                                                                                                        
d860c02a07c2c452166bb279b0bed564.torrent (80 KB)

回复

使用道具 举报

百度云资源论坛 ( 闽ICP备16005822号-1 )|网站地图

本网站所有资源来自网络,如无意中侵犯了您的权益,请发邮件至 [email protected],立即清除相关链接

GMT+8, 2019-9-22 08:48 , Processed in 0.083965 second(s), 25 queries .

Powered by Discuz! X3.2

© 2001-2013 Comsenz Inc.

快速回复 返回顶部 返回列表