百度云资源论坛

 找回密码
 立即注册
搜索
热搜: 百度云资源
开启左侧

大火球/劲舞狂歌 Great.Balls.of.Fire.1989.1080p.BluRay.x264-GUACAMOLE 7...

[复制链接]
百度网盘资源 发表于 2019-7-4 06:50:32 | 显示全部楼层 |阅读模式


帖子完整标题:大火球/劲舞狂歌 Great.Balls.of.Fire.1989.1080p.BluRay.x264-GUACAMOLE 7.64GB




◎译  名 大火球 / 劲舞狂歌 / 燃烧的旋律 / 狂野歌王
◎片  名 Great Balls of Fire!
◎年  代 1989
◎产  地 美国
◎类  别 剧情 / 音乐 / 传记
◎语  言 英语
◎上映日期 1989-06-30(美国)
◎IMDb评分  6.2/10 from 14433 users
◎片  长 108 分钟
◎导  演 吉姆·麦克布莱德 Jim McBride
◎编  剧 杰克·巴伦 Jack Baran / 吉姆·麦克布莱德 Jim McBride / Murray Silver Jr. / Myra Lewis
◎主  演 丹尼斯·奎德 Dennis Quaid
      维诺娜·赖德 Winona Ryder
      John Doe


◎标  签 美国 | 音乐 | WinonaRyder | 传记 | 摇滚 | 美国电影 | 1980s | 薇诺娜·瑞德

◎简  介  

  一部真人实事搬上大萤幕的传记电影。主角杰利路易斯是由丹尼斯奎德所饰,而饰演其13岁小妻子的女孩则是美丽的薇诺娜瑞德。丹尼斯在该片有相当迷人的表演,并且充分的表现了他个人在音乐方面较不为人知的才华。1950年代,摇滚乐被视为是一种违反上帝的野蛮音乐。杰利路易斯,一位傲慢、自大却才华洋溢、备受瞩目的摇滚乐手。他自由、不受旧有风俗规范的表演曲风,在当时出乎意料的大受欢迎,知名度甚至掩盖了同时期摇滚巨星猫王的风采,并为合作夥伴及唱片老板赚进大把钞票。但这样的局势却维持不久,因为...他娶了一个足以当他女儿的13岁小女孩,在当时保守的民风下,这当然是不被允许的,杰利路易斯也因此面临了人生道路上的抉择。
Video
ID                                       : 1
Format                                   : AVC
Format/Info                              : Advanced Video Codec
Format settings                          : CABAC / 4 Ref Frames
Format settings, CABAC                   : Yes
Format settings, RefFrames               : 4 frames
Codec ID                                 : V_MPEG4/ISO/AVC
Duration                                 : 1 h 47 min
Bit rate                                 : 9 376 kb/s
Width                                    : 1 920 pixels
Height                                   : 1 040 pixels
Display aspect ratio                     : 1.85:1
Frame rate mode                          : Constant
Frame rate                               : 23.976 (24000/1001) FPS
Color space                              : YUV
Chroma subsampling                       : 4:2:0
Bit depth                                : 8 bits
Scan type                                : Progressive
Bits/(Pixel*Frame)                       : 0.196
Stream size                              : 7.06 GiB (92%)
Writing library                          : x264 core 155 r2901 7d0ff22
Encoding settings                        : cabac=1 / ref=4 / deblock=1:0:0 / analyse=0x3:0x113 / me=umh / subme=8 / psy=1 / psy_rd=1.00:0.00 / mixed_ref=1 / me_range=16 / chroma_me=1 / trellis=2 / 8x8dct=1 / cqm=0 / deadzone=21,11 / fast_pskip=0 / chroma_qp_offset=-2 / threads=12 / lookahead_threads=2 / sliced_threads=0 / nr=0 / decimate=1 / interlaced=0 / bluray_compat=0 / constrained_intra=0 / bframes=3 / b_pyramid=2 / b_adapt=1 / b_bias=0 / direct=1 / weightb=1 / open_gop=0 / weightp=2 / keyint=250 / keyint_min=23 / scenecut=40 / intra_refresh=0 / rc_lookahead=50 / rc=2pass / mbtree=1 / bitrate=9376 / ratetol=1.0 / qcomp=0.60 / qpmin=0 / qpmax=69 / qpstep=4 / cplxblur=20.0 / qblur=0.5 / ip_ratio=1.40 / aq=1:1.00
Default                                  : Yes
Forced                                   : No

Audio
ID                                       : 2
Format                                   : DTS
Format/Info                              : Digital Theater Systems
Mode                                     : 16
Format settings, Endianness              : Big
Codec ID                                 : A_DTS
Duration                                 : 1 h 47 min
Bit rate mode                            : Constant
Bit rate                                 : 768 kb/s
Channel(s)                               : 2 channels
Channel positions                        : Front: L R
Sampling rate                            : 48.0 kHz
Frame rate                               : 93.750 FPS (512 SPF)
Bit depth                                : 24 bits
Compression mode                         : Lossy
Stream size                              : 593 MiB (8%)
Language                                 : English
Default                                  : Yes
Forced                                   : No



                                                                                                                                                                                                        
                                                                                                                                                                                                                                                                                                                                                                                                                                                                                                                                                                                                                                                                                                                                                                                                                                                        
72a0d222e1f66b7d07f205a3d20d8efc.torrent (76.99 KB)

回复

使用道具 举报

百度云资源论坛 ( 闽ICP备16005822号-1 )|网站地图

本网站所有资源来自网络,如无意中侵犯了您的权益,请发邮件至 [email protected],立即清除相关链接

GMT+8, 2019-9-22 08:49 , Processed in 0.069106 second(s), 25 queries .

Powered by Discuz! X3.2

© 2001-2013 Comsenz Inc.

快速回复 返回顶部 返回列表