百度云资源论坛

 找回密码
 立即注册
搜索
热搜: 百度云资源
开启左侧

流氓警察/I.A.档案 Internal.Affairs.1990.1080p.BluRay.X264-AMIABLE 8.74GB

[复制链接]
百度网盘资源 发表于 2019-7-3 09:31:55 | 显示全部楼层 |阅读模式


帖子完整标题:流氓警察/I.A.档案 Internal.Affairs.1990.1080p.BluRay.X264-AMIABLE 8.74GB




◎译  名 流氓警察 / I.A.档案 / 罪恶档案
◎片  名 Internal Affairs
◎年  代 1990
◎产  地 美国
◎类  别 剧情 / 惊悚 / 犯罪
◎语  言 英语 / 西班牙语
◎上映日期 1990-01-12
◎IMDb评分  6.5/10 from 15666 users
◎片  长 115 分钟
◎导  演 Mike Figgis
◎编  剧 Henry Bean
◎主  演 Richard Gere
      Andy Garcia
      Laurie Metcalf
      Nancy Travis
      Elijah Wood


◎标  签 美国 | 犯罪 | RichardGere | 1990 | 警匪 | MikeFiggis | 美国电影 | 剧情

◎简  介  

  新任视察员雷蒙特和助手艾米奉命调查警察局内部一起贪污案时,发现了另一个更加隐秘的犯罪网,涉及到了声望很高的警官佩克。佩克实际上是个十分阴险的人,他一面与雷蒙特装作友好,一面又挑拨雷蒙特夫妻间的关系。调查中发现佩克有很多女人,且凡是与他交往密切的警察都很富有。被怀疑有贪污行为的斯德雷奇打电话给妻子彭妮,让她与雷蒙特做一笔交易,而此时彭妮正和佩克情意绵绵,佩克于是派人暗杀了斯德雷奇。实际上佩克一直在充当受雇杀手,就在他又去接受一起杀人买卖时,雷蒙特和艾米赶到现场,但未能抓到他。随后,他又杀死雇主,并到雷蒙特家中恐吓他妻子凯瑟琳,雷蒙特及时赶来,二人又展开一场拚杀。
Video
ID                                       : 1
Format                                   : AVC
Format/Info                              : Advanced Video Codec
Format settings, CABAC                   : Yes
Format settings, ReFrames                : 4 frames
Codec ID                                 : V_MPEG4/ISO/AVC
Duration                                 : 1 h 54 min
Bit rate                                 : 9 400 kb/s
Width                                    : 1 920 pixels
Height                                   : 1 080 pixels
Display aspect ratio                     : 16:9
Frame rate mode                          : Constant
Frame rate                               : 23.976 (24000/1001) FPS
Color space                              : YUV
Chroma subsampling                       : 4:2:0
Bit depth                                : 8 bits
Scan type                                : Progressive
Bits/(Pixel*Frame)                       : 0.189
Stream size                              : 7.36 GiB (84%)
Writing library                          : x264 core 138 r2358 9e941d1
Encoding settings                        : cabac=1 / ref=4 / deblock=1:-3:-3 / analyse=0x3:0x113 / me=umh / subme=8 / psy=1 / psy_rd=1.00:0.00 / mixed_ref=1 / me_range=16 / chroma_me=1 / trellis=1 / 8x8dct=1 / cqm=0 / deadzone=21,11 / fast_pskip=1 / chroma_qp_offset=-2 / threads=6 / lookahead_threads=1 / sliced_threads=0 / nr=0 / decimate=1 / interlaced=0 / bluray_compat=0 / constrained_intra=0 / bframes=3 / b_pyramid=2 / b_adapt=2 / b_bias=0 / direct=3 / weightb=1 / open_gop=0 / weightp=2 / keyint=240 / keyint_min=24 / scenecut=40 / intra_refresh=0 / rc_lookahead=50 / rc=2pass / mbtree=1 / bitrate=9400 / ratetol=1.0 / qcomp=0.60 / qpmin=0 / qpmax=69 / qpstep=4 / cplxblur=20.0 / qblur=0.5 / ip_ratio=1.40 / aq=1:1.00
Language                                 : English
Default                                  : Yes
Forced                                   : No

Audio
ID                                       : 2
Format                                   : DTS
Format/Info                              : Digital Theater Systems
Mode                                     : 16
Format settings, Endianness              : Big
Codec ID                                 : A_DTS
Duration                                 : 1 h 54 min
Bit rate mode                            : Constant
Bit rate                                 : 1 509 kb/s
Channel(s)                               : 6 channels
Channel positions                        : Front: L C R, Side: L R, LFE
Sampling rate                            : 48.0 kHz
Frame rate                               : 93.750 FPS (512 spf)
Bit depth                                : 24 bits
Compression mode                         : Lossy
Stream size                              : 1.21 GiB (14%)
Language                                 : English
Default                                  : Yes
Forced                                   : No

Text #1
ID                                       : 3
Format                                   : UTF-8
Codec ID                                 : S_TEXT/UTF8
Codec ID/Info                            : UTF-8 Plain Text
Title                                    : SDH
Language                                 : English
Default                                  : No
Forced                                   : No

Text #2
ID                                       : 4
Format                                   : UTF-8
Codec ID                                 : S_TEXT/UTF8
Codec ID/Info                            : UTF-8 Plain Text
Language                                 : English
Default                                  : No
Forced                                   : No

Menu
00:00:00.000                             : en:00:00:00.000
00:04:09.499                             : en:00:04:09.499
00:07:23.068                             : en:00:07:23.068
00:15:50.116                             : en:00:15:50.116
00:29:24.179                             : en:00:29:24.179
00:38:53.081                             : en:00:38:53.081
00:49:22.376                             : en:00:49:22.376
01:02:23.365                             : en:01:02:23.365
01:14:36.013                             : en:01:14:36.013
01:23:24.917                             : en:01:23:24.917
01:29:38.456                             : en:01:29:38.456
01:35:00.987                             : en:01:35:00.987
01:43:24.156                             : en:01:43:24.156



                                                                                                                                                                                                        
                                                                                                                                                                                                                                                                                                                                                                                                                                                                                                                                                                                                                                                                                                                                                                                                                                                        
ae90e728fe5004591701e0845075fc77.torrent (87.98 KB)

回复

使用道具 举报

百度云资源论坛 ( 闽ICP备16005822号-1 )|网站地图

本网站所有资源来自网络,如无意中侵犯了您的权益,请发邮件至 [email protected],立即清除相关链接

GMT+8, 2019-9-19 02:58 , Processed in 0.079877 second(s), 25 queries .

Powered by Discuz! X3.2

© 2001-2013 Comsenz Inc.

快速回复 返回顶部 返回列表