百度云资源论坛

 找回密码
 立即注册
搜索
热搜: 百度云资源
开启左侧

影与雾 Shadows.and.Fog.1991.1080p.BluRay.X264-AMIABLE 8.74GB

[复制链接]
百度网盘资源 发表于 2019-7-3 09:31:55 | 显示全部楼层 |阅读模式


帖子完整标题:影与雾 Shadows.and.Fog.1991.1080p.BluRay.X264-AMIABLE 8.74GB




◎译  名 影与雾
◎片  名 Shadows and Fog
◎年  代 1991
◎产  地 美国
◎类  别 剧情 / 喜剧 / 悬疑
◎语  言 英语
◎上映日期 1991-12-05
◎IMDb评分  6.7/10 from 15048 users
◎片  长 85 分钟
◎导  演 Woody Allen
◎编  剧 Woody Allen
◎主  演 Woody Allen
      Mia Farrow
      John Malkovich
      John Cusack


◎标  签 WoodyAllen | 伍迪·艾伦 | 美国 | Woody_Allen | 美国电影 | 1991 | 伍迪艾伦 | 1990s

◎简  介  

  Kleinman(Woody Allen饰)住在一个小镇上,他是一个小小的不起眼的记账员。一天夜里,他被邻居们叫醒,邻居们想请他帮忙把一个在小镇上杀了好多个人的陌生人抓起来。但当他穿好衣服出门准备加入邻居们擒贼的队伍中去的时候,他发现,邻居们在一时之间好像都消失了。与此同时,一个马戏团来到了镇上,展开马戏表演。Paul和Imy是其中的两个表演者。经过一场斗殴,Imy在一个晚上离开了马戏团。渐渐的,她发现了Kleinma一个人表情狰狞地蜷缩在角落里。
Video
ID                                       : 1
Format                                   : AVC
Format/Info                              : Advanced Video Codec
Format settings, CABAC                   : Yes
Format settings, ReFrames                : 4 frames
Codec ID                                 : V_MPEG4/ISO/AVC
Duration                                 : 1 h 25 min
Bit rate                                 : 13.8 Mb/s
Width                                    : 1 920 pixels
Height                                   : 1 040 pixels
Display aspect ratio                     : 1.85:1
Frame rate mode                          : Constant
Frame rate                               : 23.976 (24000/1001) FPS
Color space                              : YUV
Chroma subsampling                       : 4:2:0
Bit depth                                : 8 bits
Scan type                                : Progressive
Bits/(Pixel*Frame)                       : 0.289
Stream size                              : 8.11 GiB (93%)
Writing library                          : x264 core 148 r2638 7599210
Encoding settings                        : cabac=1 / ref=4 / deblock=1:-3:-3 / analyse=0x3:0x113 / me=umh / subme=8 / psy=1 / psy_rd=1.10:0.00 / mixed_ref=1 / me_range=24 / chroma_me=1 / trellis=1 / 8x8dct=1 / cqm=0 / deadzone=21,11 / fast_pskip=0 / chroma_qp_offset=-2 / threads=24 / lookahead_threads=4 / sliced_threads=0 / nr=0 / decimate=1 / interlaced=0 / bluray_compat=0 / constrained_intra=0 / bframes=3 / b_pyramid=2 / b_adapt=2 / b_bias=0 / direct=3 / weightb=1 / open_gop=0 / weightp=2 / keyint=240 / keyint_min=24 / scenecut=40 / intra_refresh=0 / rc_lookahead=50 / rc=2pass / mbtree=1 / bitrate=13845 / ratetol=1.0 / qcomp=0.60 / qpmin=0 / qpmax=69 / qpstep=4 / cplxblur=20.0 / qblur=0.5 / ip_ratio=1.40 / aq=3:0.80
Language                                 : English
Default                                  : Yes
Forced                                   : No
Statistics Tags Issue                    : no_variable_data 1970-01-01 00:00:00 / no_variable_data 2010-02-22 21:41:29
FromStats_BitRate                        : 13836158
FromStats_Duration                       : 01:25:39.635000000
FromStats_FrameCount                     : 123228
FromStats_StreamSize                     : 8889100872

Audio
ID                                       : 2
Format                                   : DTS
Format/Info                              : Digital Theater Systems
Mode                                     : 16
Format settings, Endianness              : Big
Codec ID                                 : A_DTS
Duration                                 : 1 h 25 min
Bit rate mode                            : Constant
Bit rate                                 : 768 kb/s
Channel(s)                               : 6 channels
Channel(s)_Original                      : 1 channel
Channel positions                        : Front: C
Sampling rate                            : 48.0 kHz
Frame rate                               : 93.750 FPS (512 spf)
Bit depth                                : 24 bits
Compression mode                         : Lossy
Stream size                              : 471 MiB (5%)
Language                                 : English
Default                                  : Yes
Forced                                   : No
Statistics Tags Issue                    : no_variable_data 1970-01-01 00:00:00 / no_variable_data 2010-02-22 21:41:29
FromStats_BitRate                        : 768000
FromStats_Duration                       : 01:25:39.648000000
FromStats_FrameCount                     : 481842
FromStats_StreamSize                     : 493406208

Text #1
ID                                       : 3
Format                                   : UTF-8
Codec ID                                 : S_TEXT/UTF8
Codec ID/Info                            : UTF-8 Plain Text
Language                                 : English
Default                                  : No
Forced                                   : No
Statistics Tags Issue                    : no_variable_data 1970-01-01 00:00:00 / no_variable_data 2010-02-22 21:41:29
FromStats_BitRate                        : 93
FromStats_Duration                       : 01:19:13.581000000
FromStats_FrameCount                     : 1572
FromStats_StreamSize                     : 55361

Text #2
ID                                       : 4
Format                                   : UTF-8
Codec ID                                 : S_TEXT/UTF8
Codec ID/Info                            : UTF-8 Plain Text
Title                                    : SDH
Language                                 : English
Default                                  : No
Forced                                   : No
Statistics Tags Issue                    : no_variable_data 1970-01-01 00:00:00 / no_variable_data 2010-02-22 21:41:29
FromStats_BitRate                        : 99
FromStats_Duration                       : 01:19:14.707000000
FromStats_FrameCount                     : 1647
FromStats_StreamSize                     : 59329

Menu
00:00:00.000                             : en:00:00:00.000
00:03:07.187                             : en:00:03:07.187
00:06:55.498                             : en:00:06:55.498
00:10:27.210                             : en:00:10:27.210
00:14:03.342                             : en:00:14:03.342
00:16:56.432                             : en:00:16:56.432
00:20:05.204                             : en:00:20:05.204
00:24:26.757                             : en:00:24:26.757
00:27:04.623                             : en:00:27:04.623
00:31:16.750                             : en:00:31:16.750
00:35:09.274                             : en:00:35:09.274
00:39:06.135                             : en:00:39:06.135
00:41:15.890                             : en:00:41:15.890
00:45:19.175                             : en:00:45:19.175
00:48:16.018                             : en:00:48:16.018
00:52:18.135                             : en:00:52:18.135
00:57:59.142                             : en:00:57:59.142
01:01:02.450                             : en:01:01:02.450
01:02:34.960                             : en:01:02:34.960
01:06:13.469                             : en:01:06:13.469
01:10:28.433                             : en:01:10:28.433
01:13:00.376                             : en:01:13:00.376
01:17:00.407                             : en:01:17:00.407
01:22:29.319                             : en:01:22:29.319



                                                                                                                                                                                                        
                                                                                                                                                                                                                                                                                                                                                                                                                                                                                                                                                                                                                                                                                                                                                                                                                                                        
6af4b5a4064a70bf5e0e2b03b5d1ad14.torrent (87.92 KB)

回复

使用道具 举报

百度云资源论坛 ( 闽ICP备16005822号-1 )|网站地图

本网站所有资源来自网络,如无意中侵犯了您的权益,请发邮件至 [email protected],立即清除相关链接

GMT+8, 2019-9-22 08:50 , Processed in 0.100638 second(s), 25 queries .

Powered by Discuz! X3.2

© 2001-2013 Comsenz Inc.

快速回复 返回顶部 返回列表