百度云资源论坛

 找回密码
 立即注册
搜索
热搜: 百度云资源
开启左侧

隐藏杀手/变形战士 The.Hidden.1987.1080p.BluRay.X264-AMIABLE 9.84GB

[复制链接]
百度网盘资源 发表于 2019-7-3 09:31:55 | 显示全部楼层 |阅读模式


帖子完整标题:隐藏杀手/变形战士 The.Hidden.1987.1080p.BluRay.X264-AMIABLE 9.84GB




◎译  名 隐藏杀手 / 变形战士 / 异形附身
◎片  名 The Hidden
◎年  代 1987
◎产  地 美国
◎类  别 动作 / 科幻 / 恐怖
◎语  言 英语
◎上映日期 1987-10-20
◎IMDb评分  7.0/10 from 15466 users
◎片  长 96 分钟
◎导  演 Jack Sholder
◎编  剧 Jim Kouf
◎主  演 凯尔·麦克拉克伦 Kyle MacLachlan
      迈克尔·诺里 Michael Nouri


◎标  签 科幻 | 美国 | 恐怖 | 异形 | 动作 | 1987 | 美国电影 | 1980s

◎简  介  

  一个异形在美国流窜,为了得到它想要的,它杀掉所有挡它路的人,并且用他们的身体作为新的藏身之所,它不断追寻的是生命的能量,然而另一个借用了一个死去的FBI探员身体的异形对它紧追不舍,无数无辜的人们在这场追击中丧生
Video
ID                                       : 1
Format                                   : AVC
Format/Info                              : Advanced Video Codec
Format settings, CABAC                   : Yes
Format settings, ReFrames                : 4 frames
Codec ID                                 : V_MPEG4/ISO/AVC
Duration                                 : 1h 37mn
Bit rate                                 : 13.0 Mbps
Width                                    : 1 920 pixels
Height                                   : 1 080 pixels
Display aspect ratio                     : 16:9
Frame rate mode                          : Constant
Frame rate                               : 23.976 (24000/1001) fps
Color space                              : YUV
Chroma subsampling                       : 4:2:0
Bit depth                                : 8 bits
Scan type                                : Progressive
Bits/(Pixel*Frame)                       : 0.261
Stream size                              : 8.62 GiB (88%)
Writing library                          : x264 core 152 r2851 ba24899
Encoding settings                        : cabac=1 / ref=4 / deblock=1:-3:-3 / analyse=0x3:0x113 / me=umh / subme=8 / psy=1 / psy_rd=1.10:0.00 / mixed_ref=1 / me_range=32 / chroma_me=1 / trellis=2 / 8x8dct=1 / cqm=0 / deadzone=21,11 / fast_pskip=1 / chroma_qp_offset=-2 / threads=24 / lookahead_threads=4 / sliced_threads=0 / nr=0 / decimate=1 / interlaced=0 / bluray_compat=0 / constrained_intra=0 / bframes=3 / b_pyramid=2 / b_adapt=2 / b_bias=0 / direct=3 / weightb=1 / open_gop=0 / weightp=2 / keyint=240 / keyint_min=24 / scenecut=40 / intra_refresh=0 / rc_lookahead=50 / rc=2pass / mbtree=1 / bitrate=13000 / ratetol=1.0 / qcomp=0.60 / qpmin=0 / qpmax=69 / qpstep=4 / cplxblur=20.0 / qblur=0.5 / ip_ratio=1.40 / aq=3:0.75
Default                                  : Yes
Forced                                   : No
Statistics Tags Issue                    : no_variable_data 1970-01-01 00:00:00 / no_variable_data 2010-02-22 21:41:29
FromStats_BitRate                        : 12996054
FromStats_Duration                       : 01:37:04.152000000
FromStats_FrameCount                     : 139640
FromStats_StreamSize                     : 9461374287

Audio
ID                                       : 2
Format                                   : DTS
Format/Info                              : Digital Theater Systems
Mode                                     : 16
Format settings, Endianness              : Big
Codec ID                                 : A_DTS
Duration                                 : 1h 37mn
Bit rate mode                            : Constant
Bit rate                                 : 1 509 Kbps
Channel(s)                               : 6 channels
Channel positions                        : Front: L C R, Side: L R, LFE
Sampling rate                            : 48.0 KHz
Frame rate                               : 93.750 fps (512 spf)
Bit depth                                : 24 bits
Compression mode                         : Lossy
Stream size                              : 1.02 GiB (10%)
Language                                 : English
Default                                  : Yes
Forced                                   : No
Statistics Tags Issue                    : no_variable_data 1970-01-01 00:00:00 / no_variable_data 2010-02-22 21:41:29
FromStats_BitRate                        : 1508999
FromStats_Duration                       : 01:37:04.182000000
FromStats_FrameCount                     : 546017
FromStats_StreamSize                     : 1098586204

Text #1
ID                                       : 3
Format                                   : UTF-8
Codec ID                                 : S_TEXT/UTF8
Codec ID/Info                            : UTF-8 Plain Text
Language                                 : English
Default                                  : No
Forced                                   : No
Statistics Tags Issue                    : no_variable_data 1970-01-01 00:00:00 / no_variable_data 2010-02-22 21:41:29
FromStats_BitRate                        : 50
FromStats_Duration                       : 01:35:46.283000000
FromStats_FrameCount                     : 1337
FromStats_StreamSize                     : 36339

Text #2
ID                                       : 4
Format                                   : UTF-8
Codec ID                                 : S_TEXT/UTF8
Codec ID/Info                            : UTF-8 Plain Text
Title                                    : SDH
Language                                 : English
Default                                  : No
Forced                                   : No
Statistics Tags Issue                    : no_variable_data 1970-01-01 00:00:00 / no_variable_data 2010-02-22 21:41:29
FromStats_BitRate                        : 54
FromStats_Duration                       : 01:36:38.168000000
FromStats_FrameCount                     : 1470
FromStats_StreamSize                     : 39392

Menu
00:00:00.000                             : en:00:00:00.000
00:03:04.726                             : en:00:03:04.726
00:08:19.457                             : en:00:08:19.457
00:12:20.865                             : en:00:12:20.865
00:16:27.528                             : en:00:16:27.528
00:21:30.456                             : en:00:21:30.456
00:24:57.079                             : en:00:24:57.079
00:29:15.587                             : en:00:29:15.587
00:31:44.319                             : en:00:31:44.319
00:35:40.180                             : en:00:35:40.180
00:41:32.031                             : en:00:41:32.031
00:45:39.904                             : en:00:45:39.904
00:51:02.059                             : en:00:51:02.059
01:00:25.413                             : en:01:00:25.413
01:06:59.891                             : en:01:06:59.891
01:11:10.016                             : en:01:11:10.016
01:15:06.627                             : en:01:15:06.627
01:20:38.292                             : en:01:20:38.292
01:25:52.689                             : en:01:25:52.689
01:29:09.803                             : en:01:29:09.803
01:32:58.490                             : en:01:32:58.490



                                                                                                                                                                                                        
                                                                                                                                                                                                                                                                                                                                                                                                                                                                                                                                                                                                                                                                                                                                                                                                                                                        
d6c3dee46bdfb9550a7980b8bebdb52e.torrent (99.26 KB)

回复

使用道具 举报

百度云资源论坛 ( 闽ICP备16005822号-1 )|网站地图

本网站所有资源来自网络,如无意中侵犯了您的权益,请发邮件至 [email protected],立即清除相关链接

GMT+8, 2019-9-22 17:18 , Processed in 0.103978 second(s), 25 queries .

Powered by Discuz! X3.2

© 2001-2013 Comsenz Inc.

快速回复 返回顶部 返回列表