百度云资源论坛

 找回密码
 立即注册
搜索
热搜: 百度云资源
开启左侧

青春韶华 Leopardi.2014.1080p.BluRay.x264-USURY 9.87GB

[复制链接]
百度网盘资源 发表于 2019-7-2 21:23:27 | 显示全部楼层 |阅读模式


帖子完整标题:青春韶华 Leopardi.2014.1080p.BluRay.x264-USURY 9.87GB




◎译  名 青春韶华 / Leopardi
◎片  名 Il giovane favoloso
◎年  代 2014
◎产  地 意大利
◎类  别 传记 / 历史
◎语  言 意大利语
◎上映日期 2014-09-01(威尼斯电影节)
◎IMDb评分  6.8/10 from 2212 users
◎片  长 137分钟
◎导  演 马里奥·马尔托内 Mario Martone
◎编  剧 马里奥·马尔托内 Mario Martone
◎主  演 埃里奥·杰曼诺 Elio Germano
      伊莎贝拉·拉贡内瑟 Isabella Ragonese
      埃尼奥·凡塔斯蒂奇尼 Ennio Fantastichini
      安娜·莫格拉莉丝 Anna Mouglalis


◎标  签 意大利 | 传记 | 意大利电影 | 文艺 | 2014 | 历史 | 电影 | MarioMartone

◎简  介  

  《青春韶华》这部传记片,讲述的是意大利著名诗人、哲学家贾科莫·莱帕尔德的故事,扮演莱帕尔德的则是戛纳影帝、意大利男星埃里奥·杰曼诺。莱帕尔德1798年出生在一个小镇,被认为是意大利最伟大的诗人之一,地位仅次于但丁。尽管他出身贫寒,但即使是他早期的作品,也提出了对他的时代至关重要的问题,它们显示了启蒙主义的影响,并且在很多方面预示了尼采的虚无主义。
莱帕尔德是个神童,很早就掌握了多门古老和现代的语言,20岁写就《诗歌》,但38岁时,他就因病早逝。叔本华称莱帕尔德为其“精神上的兄长”,意大利人认为他是最伟大的智者之一,他的思想被盛赞为“超越从歌德到瓦莱里的每一位欧洲文学家”。但是,尽管身负众多赞誉,这位19世纪的诗人和哲学家在主流英语世界仍然鲜为人知。影片在媒体评论处获得了不坏的评价。《好莱坞报道者》称:“随着影片的进展,故事愈发地引人入胜。尤其值得一提的是,影片的摄影,绝对是顶尖水准的。”英国的《卫报》则评论称:“虽然说,这并不是本届威尼斯上最激进的影片,但它绝对值得人们的关注。”

◎获奖情况  

  第71届威尼斯电影节(2014)
  主竞赛单元 金狮奖 (提名) 马里奥·马尔托内


Video
ID                                       : 1
Format                                   : AVC
Format/Info                              : Advanced Video Codec
Format settings                          : CABAC / 4 Ref Frames
Format settings, CABAC                   : Yes
Format settings, ReFrames                : 4 frames
Codec ID                                 : V_MPEG4/ISO/AVC
Duration                                 : 2 h 23 min
Bit rate                                 : 8 285 kb/s
Width                                    : 1 920 pixels
Height                                   : 1 040 pixels
Display aspect ratio                     : 1.85:1
Frame rate mode                          : Constant
Frame rate                               : 23.976 (24000/1001) FPS
Color space                              : YUV
Chroma subsampling                       : 4:2:0
Bit depth                                : 8 bits
Scan type                                : Progressive
Bits/(Pixel*Frame)                       : 0.173
Stream size                              : 8.32 GiB (85%)
Writing library                          : x264 core 157 r2969 d4099dd
Encoding settings                        : cabac=1 / ref=4 / deblock=1:-3:-3 / analyse=0x3:0x133 / me=umh / subme=9 / psy=1 / psy_rd=1.00:0.00 / mixed_ref=1 / me_range=16 / chroma_me=1 / trellis=2 / 8x8dct=1 / cqm=0 / deadzone=21,11 / fast_pskip=0 / chroma_qp_offset=-2 / threads=18 / lookahead_threads=1 / sliced_threads=0 / nr=0 / decimate=1 / interlaced=0 / bluray_compat=0 / constrained_intra=0 / bframes=3 / b_pyramid=2 / b_adapt=1 / b_bias=0 / direct=3 / weightb=1 / open_gop=0 / weightp=2 / keyint=240 / keyint_min=24 / scenecut=40 / intra_refresh=0 / rc_lookahead=50 / rc=2pass / mbtree=1 / bitrate=8285 / ratetol=1.0 / qcomp=0.60 / qpmin=0 / qpmax=69 / qpstep=4 / cplxblur=20.0 / qblur=0.5 / ip_ratio=1.40 / aq=1:1.00
Language                                 : English
Default                                  : Yes
Forced                                   : No

Audio
ID                                       : 2
Format                                   : DTS
Format/Info                              : Digital Theater Systems
Codec ID                                 : A_DTS
Duration                                 : 2 h 23 min
Bit rate mode                            : Constant
Bit rate                                 : 1 509 kb/s
Channel(s)                               : 6 channels
Channel layout                           : C L R Ls Rs LFE
Sampling rate                            : 48.0 kHz
Frame rate                               : 93.750 FPS (512 SPF)
Bit depth                                : 24 bits
Compression mode                         : Lossy
Stream size                              : 1.52 GiB (15%)
Language                                 : Italian
Default                                  : Yes
Forced                                   : No

Text
ID                                       : 3
Format                                   : UTF-8
Codec ID                                 : S_TEXT/UTF8
Codec ID/Info                            : UTF-8 Plain Text
Duration                                 : 2 h 15 min
Bit rate                                 : 49 b/s
Count of elements                        : 1394
Stream size                              : 49.0 KiB (0%)
Title                                    : English
Language                                 : English
Default                                  : Yes
Forced                                   : Yes

Menu
00:00:00.000                             : en:00:00:00.000
00:14:39.921                             : en:00:14:39.921
00:22:12.957                             : en:00:22:12.957
00:26:58.742                             : en:00:26:58.742
00:35:37.927                             : en:00:35:37.927
00:47:58.042                             : en:00:47:58.042
00:59:00.454                             : en:00:59:00.454
01:07:22.205                             : en:01:07:22.205
01:15:52.006                             : en:01:15:52.006
01:26:25.472                             : en:01:26:25.472
01:32:49.647                             : en:01:32:49.647
01:40:26.437                             : en:01:40:26.437
01:49:37.613                             : en:01:49:37.613
01:58:41.364                             : en:01:58:41.364
02:12:00.079                             : en:02:12:00.079
02:17:15.894                             : en:02:17:15.894



                                                                                                                                                                                                        
                                                                                                                                                                                                                                                                                                                                                                                                                                                                                                                                                                                                                                                                                                                                                                                                                                                        
775453243f3726e9fe4230c64b115c87.torrent (50.2 KB)

回复

使用道具 举报

百度云资源论坛 ( 闽ICP备16005822号-1 )|网站地图

本网站所有资源来自网络,如无意中侵犯了您的权益,请发邮件至 [email protected],立即清除相关链接

GMT+8, 2019-9-22 17:16 , Processed in 0.085022 second(s), 25 queries .

Powered by Discuz! X3.2

© 2001-2013 Comsenz Inc.

快速回复 返回顶部 返回列表