百度云资源论坛

 找回密码
 立即注册
搜索
热搜: 百度云资源
开启左侧

那时候那些人 The.Presidents.Last.Bang.2005.KOREAN.1080p.BluRay.x264.DTS...

[复制链接]
百度网盘资源 发表于 2019-7-2 21:23:27 | 显示全部楼层 |阅读模式


帖子完整标题:那时候那些人 The.Presidents.Last.Bang.2005.KOREAN.1080p.BluRay.x264.DTS-PbK 11.08GB




◎译  名 那时候那些人 / The President's Last Bang / 总统致命一击 / 那时候的人们
◎片  名 ?? ????
◎年  代 2005
◎产  地 韩国
◎类  别 剧情 / 喜剧 / 历史 / 犯罪
◎语  言 韩语
◎上映日期 2005-02-03(韩国)
◎IMDb评分  7.0/10 from 1220 users
◎导  演 林常树 Sang-soo Im
◎编  剧 林常树 Sang-soo Im
◎主  演 韩石圭 Suk-kyu Han
      白允植 Yun-shik Baek
      宋在浩 Jae-ho Song
      金应洙 Eung-soo Kim
      郑元中 Won-jung Jeong
      金尚浩 Sang-ho Kim
      崔东勋 Dong-hun Choi
      曹恩智 Eun-ji Jo


◎标  签 韩国 | 韩国电影 | 政治 | 历史 | 林常树 | 韩石圭 | 2005 | 政变

◎简  介  

  1979年10月26日!
那天,展开前所未闻的事件的那时那些人们。
“今天,我来办!”
由于直升机没有位置,中央情报部金部长没有和总统一起去参加活动而来到医院做检查,他的主治医生告诉他健康状况不理想,劝金部长暂时休息。途中听到总统突然要举行晚餐聚会消息的金部长,立即决定和随行秘书一起前往宫廷洞。晚餐已经开始,看到平常和自己有矛盾的保卫部长目中无人的态度,金部长自尊心受到了伤害。趁别人不注意他叫出了自己的左膀右臂周课长和敏大领,告诉他们要暗杀总统的计划。
“有什么好办法吗?OK!去吧!”
金部长的得力助手周课长今天也忙着收拾令人头痛的事情,对于这样的生活他已经烦透了。加上突然的晚餐通知,让他心中充满抱怨。在晚餐途中金部长突然叫自己和敏大领,并告知了一个惊人的消息!
“让你做你就去做!这是课长的命令!”
回到保卫室的周课长全副武装并向四个部下下达命令。只要是命令就无条件服从的忠心部下永兆和纯朴的俊亨,警卫员元泰以及海兵出身的司机相旭,不知原因的四位部下在周课长的命令下在各自的位置上等待着金部长的枪声……
虽然是所有人都知道的事件,但是什么也不知道的“那些人”的故事从这里刚刚开始!
Video
ID                                       : 1
Format                                   : AVC
Format/Info                              : Advanced Video Codec
Format settings                          : CABAC / 5 Ref Frames
Format settings, CABAC                   : Yes
Format settings, ReFrames                : 5 frames
Codec ID                                 : V_MPEG4/ISO/AVC
Duration                                 : 1 h 42 min
Bit rate                                 : 14.0 Mb/s
Width                                    : 1 920 pixels
Height                                   : 820 pixels
Display aspect ratio                     : 2.35:1
Frame rate mode                          : Constant
Frame rate                               : 23.976 (24000/1001) FPS
Color space                              : YUV
Chroma subsampling                       : 4:2:0
Bit depth                                : 8 bits
Scan type                                : Progressive
Bits/(Pixel*Frame)                       : 0.371
Stream size                              : 9.78 GiB (88%)
Writing library                          : x264 core 155 r2901 7d0ff22
Encoding settings                        : cabac=1 / ref=5 / deblock=1:-3:-3 / analyse=0x3:0x133 / me=umh / subme=11 / psy=1 / psy_rd=1.00:0.00 / mixed_ref=1 / me_range=48 / chroma_me=1 / trellis=2 / 8x8dct=1 / cqm=0 / deadzone=21,11 / fast_pskip=1 / chroma_qp_offset=-2 / threads=18 / lookahead_threads=3 / sliced_threads=0 / nr=0 / decimate=1 / interlaced=0 / bluray_compat=0 / constrained_intra=0 / bframes=8 / b_pyramid=2 / b_adapt=2 / b_bias=0 / direct=3 / weightb=1 / open_gop=0 / weightp=2 / keyint=240 / keyint_min=24 / scenecut=40 / intra_refresh=0 / rc=2pass / mbtree=0 / bitrate=14000 / ratetol=1.0 / qcomp=0.60 / qpmin=0 / qpmax=69 / qpstep=4 / cplxblur=20.0 / qblur=0.5 / ip_ratio=1.30 / pb_ratio=1.20 / aq=3:0.80
Default                                  : Yes
Forced                                   : No
Color range                              : Limited
Color primaries                          : BT.709
Transfer characteristics                 : BT.709
Matrix coefficients                      : BT.709
FromStats_BitRate                        : 13997382
FromStats_Duration                       : 01:42:18.508000000
FromStats_FrameCount                     : 147177
FromStats_StreamSize                     : 10740380831

Audio
ID                                       : 2
Format                                   : DTS
Format/Info                              : Digital Theater Systems
Codec ID                                 : A_DTS
Duration                                 : 1 h 42 min
Bit rate mode                            : Constant
Bit rate                                 : 1 509 kb/s
Channel(s)                               : 6 channels
Channel layout                           : C L R Ls Rs LFE
Sampling rate                            : 48.0 kHz
Frame rate                               : 93.750 FPS (512 SPF)
Bit depth                                : 24 bits
Compression mode                         : Lossy
Stream size                              : 1.08 GiB (10%)
Language                                 : Korean
Default                                  : Yes
Forced                                   : No
FromStats_BitRate                        : 1508999
FromStats_Duration                       : 01:42:18.507000000
FromStats_FrameCount                     : 575485
FromStats_StreamSize                     : 1157875820

Text
ID                                       : 3
Format                                   : UTF-8
Codec ID                                 : S_TEXT/UTF8
Codec ID/Info                            : UTF-8 Plain Text
Language                                 : English
Default                                  : Yes
Forced                                   : No
FromStats_BitRate                        : 51
FromStats_Duration                       : 01:37:47.726000000
FromStats_FrameCount                     : 1052
FromStats_StreamSize                     : 37528



                                                                                                                                                                                                        
                                                                                                                                                                                                                                                                                                                                                                                                                                                                                                                                                                                                                                                                                                                                                                                                                                                        
2d0042853be89d13fa5e280d04083d94.torrent (55.97 KB)

回复

使用道具 举报

百度云资源论坛 ( 闽ICP备16005822号-1 )|网站地图

本网站所有资源来自网络,如无意中侵犯了您的权益,请发邮件至 [email protected],立即清除相关链接

GMT+8, 2019-9-22 08:57 , Processed in 0.078880 second(s), 25 queries .

Powered by Discuz! X3.2

© 2001-2013 Comsenz Inc.

快速回复 返回顶部 返回列表