百度云资源论坛

 找回密码
 立即注册
搜索
热搜: 百度云资源
开启左侧

少年特工科迪2/小鬼特务2 Agent.Cody.Banks.2.Destination.London.2004....

[复制链接]
百度网盘资源 发表于 2019-7-2 21:23:27 | 显示全部楼层 |阅读模式


帖子完整标题:少年特工科迪2/小鬼特务2 Agent.Cody.Banks.2.Destination.London.2004.1080p.BluRay.x264-PSYCHD 7.65GB




◎译  名 少年特工科迪2 / 小鬼特务2 / 少年特工科迪2:目标伦敦 / 特务B续集 / 辅导级战警2 / 间谍小哥2
◎片  名 Agent Cody Banks 2: Destination London
◎年  代 2004
◎产  地 美国
◎类  别 喜剧 / 动作 / 爱情 / 悬疑 / 家庭 / 犯罪 / 冒险
◎语  言 英语
◎上映日期 2004-03-12
◎IMDb评分  4.5/10 from 13076 users
◎片  长 100 分钟
◎导  演 凯文·艾伦 Kevin Allen
◎编  剧 唐·莱默 Don Rhymer
◎主  演 Frankie Muniz
      Anthony Anderson
      Hannah Spearritt
      James Faulkner


◎标  签 美国 | 动作 | 青春 | 喜剧 | 美国电影 | 特工 | 科幻 | 间谍

◎简  介  

  故事紧接着上一部继续发展。中情局发现手下的一名特工叛变,还带走了一份关乎到国家秘密的重要图纸,这名特工逃往了伦敦,准备将这份图纸献给野心勃勃的邪恶势力。如此危机的情况之下,中情局再度找到了科迪(弗朗基·穆尼兹 Frankie Muniz 饰),要求他在事态发展到无法挽回的局面之前夺回图纸。
就这样,科迪来到了伦敦,进入了一所音乐学院就读以隐藏自己的真实身份,与此同时,科迪还必须不断精进小提琴的技艺,以应付学校中繁杂的试验。聪明的科迪一遍小心翼翼不露出马脚,一遍亦步亦趋的追踪着图纸的下落,殊不知,自己已经被卷入了一个复杂而又危险的阴谋之中。
Video
ID                                       : 1
Format                                   : AVC
Format/Info                              : Advanced Video Codec
Format settings, CABAC                   : Yes
Format settings, ReFrames                : 5 frames
Codec ID                                 : V_MPEG4/ISO/AVC
Duration                                 : 1 h 40 min
Bit rate                                 : 9 439 kb/s
Width                                    : 1 920 pixels
Height                                   : 816 pixels
Display aspect ratio                     : 2.35:1
Frame rate mode                          : Constant
Frame rate                               : 23.976 (24000/1001) FPS
Color space                              : YUV
Chroma subsampling                       : 4:2:0
Bit depth                                : 8 bits
Scan type                                : Progressive
Bits/(Pixel*Frame)                       : 0.251
Stream size                              : 6.44 GiB (84%)
Writing library                          : x264 core 148 r2692 64f4e24
Encoding settings                        : cabac=1 / ref=5 / deblock=1:-3:-3 / analyse=0x3:0x113 / me=umh / subme=8 / psy=1 / psy_rd=1.10:0.00 / mixed_ref=1 / me_range=32 / chroma_me=1 / trellis=1 / 8x8dct=1 / cqm=0 / deadzone=21,11 / fast_pskip=1 / chroma_qp_offset=-2 / threads=18 / lookahead_threads=3 / sliced_threads=0 / nr=0 / decimate=1 / interlaced=0 / bluray_compat=0 / constrained_intra=0 / bframes=3 / b_pyramid=2 / b_adapt=2 / b_bias=0 / direct=3 / weightb=1 / open_gop=0 / weightp=2 / keyint=240 / keyint_min=24 / scenecut=40 / intra_refresh=0 / rc_lookahead=50 / rc=2pass / mbtree=1 / bitrate=9439 / ratetol=1.0 / qcomp=0.60 / qpmin=0 / qpmax=69 / qpstep=4 / cplxblur=20.0 / qblur=0.5 / ip_ratio=1.40 / aq=3:0.80
Default                                  : Yes
Forced                                   : No
Statistics Tags Issue                    : no_variable_data 1970-01-01 00:00:00 / no_variable_data 2010-02-22 21:41:29
FromStats_BitRate                        : 9436412
FromStats_Duration                       : 01:40:02.997000000
FromStats_FrameCount                     : 143928
FromStats_StreamSize                     : 7080844466

Audio
ID                                       : 2
Format                                   : DTS
Format/Info                              : Digital Theater Systems
Mode                                     : 16
Format settings, Endianness              : Big
Codec ID                                 : A_DTS
Duration                                 : 1 h 40 min
Bit rate mode                            : Constant
Bit rate                                 : 1 509 kb/s
Channel(s)                               : 6 channels
Channel positions                        : Front: L C R, Side: L R, LFE
Sampling rate                            : 48.0 kHz
Frame rate                               : 93.750 FPS (512 spf)
Bit depth                                : 24 bits
Compression mode                         : Lossy
Stream size                              : 1.05 GiB (14%)
Language                                 : English
Default                                  : Yes
Forced                                   : No
Statistics Tags Issue                    : no_variable_data 1970-01-01 00:00:00 / no_variable_data 2010-02-22 21:41:29
FromStats_BitRate                        : 1508999
FromStats_Duration                       : 01:40:03.019000000
FromStats_FrameCount                     : 562783
FromStats_StreamSize                     : 1132319396



                                                                                                                                                                                                        
                                                                                                                                                                                                                                                                                                                                                                                                                                                                                                                                                                                                                                                                                                                                                                                                                                                        
13ea27e98f057110673c4448a8a4f3bd.torrent (77.08 KB)

回复

使用道具 举报

百度云资源论坛 ( 闽ICP备16005822号-1 )|网站地图

本网站所有资源来自网络,如无意中侵犯了您的权益,请发邮件至 [email protected],立即清除相关链接

GMT+8, 2019-9-19 02:59 , Processed in 0.067610 second(s), 25 queries .

Powered by Discuz! X3.2

© 2001-2013 Comsenz Inc.

快速回复 返回顶部 返回列表