百度云资源论坛

 找回密码
 立即注册
搜索
热搜: 百度云资源
开启左侧

三脚猫部队/三角洲部队闹剧 Delta.Farce.2007.1080p.BluRay.x264-Japh...

[复制链接]
百度网盘资源 发表于 2019-7-2 21:23:27 | 显示全部楼层 |阅读模式


帖子完整标题:三脚猫部队/三角洲部队闹剧 Delta.Farce.2007.1080p.BluRay.x264-Japhson 7.95GB




◎译  名 三脚猫部队 / 三角洲部队闹剧 / 呆瓜从军 / 拉瑞参军记
◎片  名 Delta Farce
◎年  代 2007
◎产  地 美国
◎类  别 喜剧 / 动作 / 冒险
◎语  言 英语 / 西班牙语
◎上映日期 2007-05-11
◎IMDb评分  3.5/10 from 10264 users
◎片  长 USA: 90 分钟
◎导  演 C.B. Harding
◎编  剧 Bear Aderhold / Tom Sullivan
◎主  演 Larry The Cable Guy
      Christina Moore
      Bill Engvall
      Lisa Lampanelli
      DJ Qualls


◎标  签 喜剧 | 美国 | 搞笑 | 恶搞 | 美国电影 | 战争 | 2007 | 三角猫特种部队

◎简  介  

  笨手笨脚的拉里(王牌接线员拉里 Larry The Cable Guy饰)刚刚度过他人生中最糟糕的一天,极度郁闷的拉里决定约上他的邻居比尔(比尔·恩格瓦尔 Bill Engvall饰)以及从小玩到大的好友埃弗雷特(DJ·考尔斯 DJ Qualls饰)一醉解千愁,趁这个周末好好散散心。正当“蠢蛋三人组”喝到尽兴的时候,他们居然被一个军官误认为是开小差的士兵而被莫名其妙地赶上飞机,准备派到伊拉克战场作战。更离谱的是,“蠢蛋三人组” 被错误地空投到了墨西哥的陌生小镇上,三人还信以为真以为他们正身处中东,决定大干一场。当地军阀卡洛斯·桑坦纳(丹尼·特乔 Danny Trejo饰)残暴不仁,危害百姓。“蠢蛋三人组”在误打误撞下,竟然阴差阳错地从一伙强盗手中解救出了被围困的村民。一时间,三人成为了小镇人民心中的大英雄。
Video
ID                                       : 1
Format                                   : AVC
Format/Info                              : Advanced Video Codec
Format settings, CABAC                   : Yes
Format settings, ReFrames                : 4 frames
Codec ID                                 : V_MPEG4/ISO/AVC
Duration                                 : 1h 29mn
Bit rate                                 : 12.1 Mbps
Width                                    : 1 920 pixels
Height                                   : 1 080 pixels
Display aspect ratio                     : 16:9
Frame rate mode                          : Constant
Frame rate                               : 23.976 fps
Color space                              : YUV
Chroma subsampling                       : 4:2:0
Bit depth                                : 8 bits
Scan type                                : Progressive
Bits/(Pixel*Frame)                       : 0.243
Stream size                              : 7.39 GiB (93%)
Writing library                          : x264 core 67 r1173 f6d3166
Encoding settings                        : cabac=1 / ref=4 / deblock=1:-1:-1 / analyse=0x3:0x113 / me=umh / subme=7 / psy_rd=1.0:0.0 / mixed_ref=1 / me_range=16 / chroma_me=1 / trellis=2 / 8x8dct=1 / cqm=0 / deadzone=21,11 / chroma_qp_offset=-2 / threads=6 / nr=0 / decimate=1 / mbaff=0 / bframes=3 / b_pyramid=0 / b_adapt=2 / b_bias=0 / direct=3 / wpredb=1 / keyint=250 / keyint_min=25 / scenecut=40 / rc=2pass / bitrate=12078 / ratetol=1.0 / qcomp=0.60 / qpmin=10 / qpmax=51 / qpstep=4 / cplxblur=20.0 / qblur=0.5 / vbv_maxrate=50000 / vbv_bufsize=50000 / ip_ratio=1.40 / pb_ratio=1.30 / aq=1:1.00
Language                                 : English
Default                                  : Yes
Forced                                   : No

Audio
ID                                       : 2
Format                                   : AC-3
Format/Info                              : Audio Coding 3
Mode extension                           : CM (complete main)
Format settings, Endianness              : Big
Codec ID                                 : A_AC3
Duration                                 : 1h 29mn
Bit rate mode                            : Constant
Bit rate                                 : 640 Kbps
Channel(s)                               : 6 channels
Channel positions                        : Front: L C R, Side: L R, LFE
Sampling rate                            : 48.0 KHz
Frame rate                               : 31.250 fps (1536 spf)
Compression mode                         : Lossy
Stream size                              : 410 MiB (5%)
Language                                 : English
Default                                  : Yes
Forced                                   : No



                                                                                                                                                                                                        
                                                                                                                                                                                                                                                                                                                                                                                                                                                                                                                                                                                                                                                                                                                                                                                                                                                        
75b5100c2b48c158c34058c5958c9516.torrent (80.02 KB)

回复

使用道具 举报

百度云资源论坛 ( 闽ICP备16005822号-1 )|网站地图

本网站所有资源来自网络,如无意中侵犯了您的权益,请发邮件至 [email protected],立即清除相关链接

GMT+8, 2019-9-22 17:39 , Processed in 0.098053 second(s), 25 queries .

Powered by Discuz! X3.2

© 2001-2013 Comsenz Inc.

快速回复 返回顶部 返回列表