百度云资源论坛

 找回密码
 立即注册
搜索
热搜: 百度云资源
开启左侧

[BT下载]杀戮场 Killing.Ground.2016.1080p.BluRay.x264.DTS-HD.MA.5.1-MT 7.6GB

[复制链接]
百度云分享 发表于 2017-10-31 16:24:26 | 显示全部楼层 |阅读模式

译  名 杀戮场
片  名 Killing Ground
年  代 2016
产  地 澳大利亚
类  别 惊悚/恐怖
语  言 英语
上映日期 2016-08-04(墨尔本电影节)/2017-08-24(澳大利亚)
片  长 88分钟
导  演 达米恩·鲍尔 Damien Power
主  演 米茨·鲁尔曼 Mitzi Ruhlmann
      哈丽特·戴尔 Harriet Dyer
      亚伦·佩德森 Aaron Pedersen
      斯蒂芬·亨特 Stephen Hunter
      缇娅妮·库普兰 Tiarnie Coupland
      伊恩·麦杜思 Ian Meadows
      塔拉·杰德·博格 Tara Jade Borg
      玛雅·施坦格 Maya Stange
      亚伦·格伦尼 Aaron Glenane
      艾尔利·多兹 Airlie Dodds
      朱利安·加纳 Julian Garner
      马克·加达莱塔 Mark Gadaleta
      迈克尔·诺特 Michael Knott


简  介


  一对夫妇野营旅行时,碰见了正在行凶的罪犯,并在准备不声不响离开时绊倒了的悲惨故事……





Video
ID                                       : 1
Format                                   : AVC
Format/Info                              : Advanced Video Codec
Format profile                           : HighL4.1
Format settings, CABAC                   : Yes
Format settings, ReFrames                : 5 frames
Codec ID                                 : V_MPEG4/ISO/AVC
Duration                                 : 1 h 28 min
Bit rate                                 : 9 418 kb/s
Width                                    : 1 920 pixels
Height                                   : 806 pixels
Display aspect ratio                     : 2.40:1
Frame rate mode                          : Constant
Frame rate                               : 23.976 (24000/1001) FPS
Color space                              : YUV
Chroma subsampling                       : 4:2:0
Bit depth                                : 8 bits
Scan type                                : Progressive
Bits/(Pixel*Frame)                       : 0.254
Stream size                              : 5.83 GiB (76%)
Default                                  : Yes
Forced                                   : No

Audio
ID                                       : 2
Format                                   : DTS
Format/Info                              : Digital Theater Systems
Format profile                           : MA / Core
Mode                                     : 16
Format settings, Endianness              : Big
Codec ID                                 : A_DTS
Duration                                 : 1 h 28 min
Bit rate mode                            : Variable / Constant
Bit rate                                 : 2 915 kb/s / 1 509 kb/s
Channel(s)                               : 6 channels
Channel positions                        : Front: L C R, Side: L R, LFE
Sampling rate                            : 48.0 kHz
Frame rate                               : 93.750 FPS (512 spf)
Bit depth                                : 24 bits
Compression mode                         : Lossless / Lossy
Stream size                              : 1.81 GiB (24%)
Title                                    : English
Language                                 : English
Default                                  : Yes
Forced                                   : No





                                                                                                                                                                                                        


Killing.Ground.2016.1080p.BluRay.x264.DTS-HD.MA.5.1-MT[bt天堂 www.btbt4.com].torrent (76.93 KB)

回复

使用道具 举报

百度云资源论坛 ( 闽ICP备16005822号-1 )|网站地图

本网站所有资源来自网络,如无意中侵犯了您的权益,请发邮件至 [email protected],立即清除相关链接

GMT+8, 2019-9-22 17:16 , Processed in 0.069250 second(s), 25 queries .

Powered by Discuz! X3.2

© 2001-2013 Comsenz Inc.

快速回复 返回顶部 返回列表