百度云资源论坛

 找回密码
 立即注册
搜索
热搜: 百度云资源
开启左侧

[BT下载]希科克 Hickok.2017.1080p.BluRay.x264.DTS-HD.MA.5.1-FGT 10.02GB

[复制链接]
网盘资源分享 发表于 2017-10-31 16:24:26 | 显示全部楼层 |阅读模式

译  名 希科克
片  名 Hickok
年  代 2017
产  地 美国
类  别 西部
语  言 英语
上映日期 2017-07-07(美国)
导  演 Timothy Woodward Jr.
主  演 卢克·海姆斯沃斯 Luke Hemsworth
      特雷斯·阿德金斯 Trace Adkins
      克里斯·克里斯托佛森 Kris Kristofferson
      布鲁斯·邓恩 Bruce Dern
      卡梅隆·理查德森 Cameron Richardson
      凯维·莱曼-默塞尤 Kaiwi Lyman-Mersereau
      罗伯特·卡特里尼 Robert Catrini
      Manu Intiraymi
      Jason Lively
      Kimberly Alexander


简  介


  在这个弹药充足,潜藏着不法威胁的小镇里,海姆斯沃斯将演绎经典西部英雄比尔·希科克与他的枪战传奇。


Video
ID                                       : 1
Format                                   : AVC
Format/Info                              : Advanced Video Codec
Format profile                           : HighL4
Format settings, CABAC                   : Yes
Format settings, ReFrames                : 5 frames
Codec ID                                 : V_MPEG4/ISO/AVC
Duration                                 : 1 h 28 min
Bit rate                                 : 11.7 Mb/s
Width                                    : 1 920 pixels
Height                                   : 808 pixels
Display aspect ratio                     : 2.40:1
Frame rate mode                          : Constant
Frame rate                               : 23.976 (24000/1001) FPS
Color space                              : YUV
Chroma subsampling                       : 4:2:0
Bit depth                                : 8 bits
Scan type                                : Progressive
Bits/(Pixel*Frame)                       : 0.315
Stream size                              : 7.23 GiB (72%)
Title                                    : Hickok.2017.1080p.BluRay.x264.DTS-HD.MA.5.1-FGT
Writing library                          : x264 core 148 r2795M aaa9aa8
Encoding settings                        : cabac=1 / ref=5 / deblock=1:0:0 / analyse=0x3:0x113 / me=hex / subme=8 / psy=1 / psy_rd=1.00:0.00 / mixed_ref=1 / me_range=16 / chroma_me=1 / trellis=2 / 8x8dct=1 / cqm=0 / deadzone=21,11 / fast_pskip=1 / chroma_qp_offset=-2 / threads=48 / lookahead_threads=6 / sliced_threads=0 / nr=0 / decimate=1 / interlaced=0 / bluray_compat=0 / constrained_intra=0 / bframes=3 / b_pyramid=2 / b_adapt=1 / b_bias=0 / direct=3 / weightb=1 / open_gop=0 / weightp=2 / keyint=250 / keyint_min=23 / scenecut=40 / intra_refresh=0 / rc_lookahead=50 / rc=crf / mbtree=1 / crf=17.0 / qcomp=0.60 / qpmin=0 / qpmax=69 / qpstep=4 / ip_ratio=1.40 / aq=1:1.00
Default                                  : Yes
Forced                                   : No

Audio
ID                                       : 2
Format                                   : DTS
Format/Info                              : Digital Theater Systems
Format profile                           : MA / Core
Mode                                     : 16
Format settings, Endianness              : Big
Codec ID                                 : A_DTS
Duration                                 : 1 h 28 min
Bit rate mode                            : Variable / Constant
Bit rate                                 : 4 516 kb/s / 1 509 kb/s
Channel(s)                               : 6 channels
Channel positions                        : Front: L C R, Side: L R, LFE
Sampling rate                            : 48.0 kHz
Frame rate                               : 93.750 FPS (512 spf)
Bit depth                                : 24 bits
Compression mode                         : Lossless / Lossy
Stream size                              : 2.79 GiB (28%)
Language                                 : English
Default                                  : Yes
Forced                                   : No

Text
ID                                       : 3
Format                                   : PGS
Muxing mode                              : zlib
Codec ID                                 : S_HDMV/PGS
Codec ID/Info                            : Picture based subtitle format used on BDs/HD-DVDs
Duration                                 : 1 h 27 min
Bit rate                                 : 41.4 kb/s
Count of elements                        : 2637
Stream size                              : 25.8 MiB (0%)
Language                                 : English
Default                                  : Yes
Forced                                   : No

Menu
00:00:00.000                             : :Chapter 1
00:11:43.577                             : :Chapter 2
00:23:52.681                             : :Chapter 3
00:32:37.121                             : :Chapter 4
00:45:34.565                             : :Chapter 5
00:57:54.429                             : :Chapter 6
01:11:23.696                             : :Chapter 7
01:23:59.909                             : :Chapter 8






                                                                                                                                                                                                        


Hickok.2017.1080p.BluRay.x264.DTS-HD.MA.5.1-FGT[bt天堂 www.btbt4.com].torrent (50.63 KB)

回复

使用道具 举报

百度云资源论坛 ( 闽ICP备16005822号-1 )|网站地图

本网站所有资源来自网络,如无意中侵犯了您的权益,请发邮件至 [email protected],立即清除相关链接

GMT+8, 2019-9-22 08:53 , Processed in 0.084161 second(s), 25 queries .

Powered by Discuz! X3.2

© 2001-2013 Comsenz Inc.

快速回复 返回顶部 返回列表